زیرنویس سریال,دانلود زیرنویس فیلم,زیرنویس,دانلود زیرنویس فارسی سریال,دانلود زیرنویس,زیرنویس فیلم,زیرنویس فارسی فیلم,زیرنویس فارسی,دانلود زیرنویس سریال,دانلود زیرنویس فارسی,زیرنویس فارسی سریال,دانلود زیرنویس فارسی فیلم و سریال,دانلود زیرنویس فیلم و سریال,مرجع دانلود زیرنویس فارسی

دانلود فیلم Hunter Gatherer 2016

دانلود رایگان فیلم Hunter Gatherer 2017


دانلود رایگان فیلم Hunter Gatherer 2017 با کیفیت (WEB-DL 720p)


دانلود با لینک مستقیم و با زیرنویس فارسی از زیرفا


نسخه کم حجم و با کیفیت x265 بزودی..



نسخه کم حجم x265 بزودی..





اطلاعات بیشتر : http://s7.picofile.com/file/8285471068/IMDB_icon.png

نام فیلم : Hunter Gatherer


ژانر فیلم : درام


امتیاز فیلم : 7.4/10 – 74 رای

امتیاز منتقدین : -/100

رده سنی : PG

محصول کشور : آمریکا

تاریخ اکران : 16 November 2016


زبان فیلم : انگلیسی

زیرنویس فیلم : -

زمان فیلم : 90 دقیقه

کیفیت: WEB-DL 720p

انکودر : MkvCage

رزولوشن : 1280x544

حجم : 653 مگابایت

کارگردان : Joshua Locy


نویسنده : Joshua Locy


بازیگران :  Andre Royo, Kellee Stewart, Jeannetta Arnette



زیرنویس فارسی : پایین لینک دانلود

خلاصه داستان :  فردی میانسال خوشبین بعد از ۳ سال زندانی کشیدن آزاد شده و دلیل نامعقولی نزد همسایه اش بر میگردد فقط به دلیل اینکه …



– – – – – – – – – [ فــــارس فیــلم ] – – – – – – – – –



Hunter Gatherer



=-=-=-=-=-=-=

Hunter Gatherer (2016)

Genre: Drama

Directed By: Joshua Locy

Cast: Andre Royo, Kellee Stewart, Jeannetta Arnette

Country: USA

Original Language: English

Storyline: After a 3-year stint in prison, an unreasonably optimistic middle-aged man returns to his stagnant neighborhood to win back his girlfriend only to find that she and his family have done what they always wanted to do - forget he exists

7.6/1070 votes

IMDB: http://www.imdb.com/title/tt3717316/




[mediainfo]
Video
ID : 1
Format : AVC
Format/Info : Advanced Video Codec
Format profile : High@L4
Format settings, CABAC : Yes
Format settings, ReFrames : 5 frames
Codec ID : V_MPEG4/ISO/AVC
Duration : 1h 28mn
Bit rate : 4 419 Kbps
Width : 1 920 pixels
Height : 816 pixels
Display aspect ratio : 2.35:1
Frame rate mode : Constant
Frame rate : 23.976 fps
Color space : YUV
Chroma subsampling : 4:2:0
Bit depth : 8 bits
Scan type : Progressive
Bits/(Pixel*Frame) : 0.118
Stream size : 2.74 GiB (90%)
Title : Hunter.Gatherer.2016.1080p.WEB-DL.DD5.1.H264-FGT
Language : English
Default : Yes
Forced : No
Color range : Limited
Color primaries : BT.709
Transfer characteristics : BT.709
Matrix coefficients : BT.709

Audio
ID : 2
Format : AC-3
Format/Info : Audio Coding 3
Mode extension : CM (complete main)
Format settings, Endianness : Big
Codec ID : A_AC3
Duration : 1h 28mn
Bit rate mode : Constant
Bit rate : 384 Kbps
Channel(s) : 6 channels
Channel positions : Front: L C R, Side: L R, LFE
Sampling rate : 48.0 KHz
Frame rate : 31.250 fps (1536 spf)
Compression mode : Lossy
Stream size : 244 MiB (8%)
Title : Hunter.Gatherer.2016.1080p.WEB-DL.DD5.1.H264-FGT
Language : English
Default : Yes
Forced : No

Text
ID : 3
Format : UTF-8
Codec ID : S_TEXT/UTF8
Codec ID/Info : UTF-8 Plain Text
Language : English
Default : Yes
Forced : No

Menu
00:00:00.000 : en:Chapter One
00:15:00.000 : en:Chapter Two
00:30:00.000 : en:Chapter Three
00:45:00.000 : en:Chapter Four
01:00:00.000 : en:Chapter Five
01:15:00.000 : en:Chapter Six



[/mediainfo]


– – – – – – – – – [ فــــارس فیــلم ] – – – – – – – – –


Hunter Gatherer


http://s8.picofile.com/file/8299149234/down123.png دانلود رایگان فیلم Hunter Gatherer 2016 :

کیفیت WEB-DL 720p - MkvCage : لینک مستقیم – حجم : 653 مگابایت


کیفیت WEB-DL 720p - MkvCage : لینک مستقیم – حجم : 653 مگابایت


– – – – – – – – – [ فــــارس فیــلم ] – – – – – – – – –

نظرات کاربران

۰ نظر 

    لطفا قبل از ارسال دیدگاه خود، موارد زیر را به دقت مطالعه کنید :

    =-=-=-=-=-=-==-=-=

  1. دیدگاهی که به غیر از زبان فارسی یا غیر مرتبط با مطلب باشد منتشر نخواهد شد.
  2. دیدگاه ارسال شده توسط شما ، پس از تایید توسط مدیران سایت منتشر خواهد شد.