زیرنویس سریال,دانلود زیرنویس فیلم,زیرنویس,دانلود زیرنویس فارسی سریال,دانلود زیرنویس,زیرنویس فیلم,زیرنویس فارسی فیلم,زیرنویس فارسی,دانلود زیرنویس سریال,دانلود زیرنویس فارسی,زیرنویس فارسی سریال,دانلود زیرنویس فارسی فیلم و سریال,دانلود زیرنویس فیلم و سریال,مرجع دانلود زیرنویس فارسی

دانلود فیلم Cross Wars 2017

دانلود رایگان فیلم Cross Wars 2017


دانلود رایگان فیلم Cross Wars 2017 با کیفیت (BluRay 1080p , 720p , x265 , 480p)


دانلود با لینک مستقیم و با زیرنویس فارسی از زیرفا


نسخه کم حجم و با کیفیت x265 اضافه شد




نسخه کم حجم x265 اضافه شد





اطلاعات بیشتر : http://s7.picofile.com/file/8285471068/IMDB_icon.png

نام فیلم : Cross Wars


ژانر فیلم : اکشن


امتیاز فیلم : 8.2/10 – 9 رای

امتیاز منتقدین : -/100

رده سنی : PG

محصول کشور : آمریکا

تاریخ اکران :  7 February 2017


زبان فیلم : انگلیسی

زیرنویس فیلم : -

زمان فیلم : 98 دقیقه

کیفیت: BluRay 1080p , 720p , x265 , 480p

انکودر : ShAaNiG

رزولوشن : 1280x688

حجم : 950 مگابایت

کارگردان : Patrick Durham


نویسنده : Patrick Durham (story by), Patrick Durham


بازیگران :  Brian Austin Green, Danny Trejo, Vinnie Jones



زیرنویس فارسی : پایین لینک دانلود

خلاصه داستان :  پلیـسی به نام کالان دارای صلیب باستانی است که قدرت های جادویی دارد. کالان به همراه تیمش با گروهی از جنایـتکاران وارد جنگ می شود که سردسته ی آن ها مردی به نام Muerte است و با تهدید کشتن هم گروهی های کالان سلاحش را از او میگیرد.Muerte با به دست آوردن صلیب، با مردی شرور به نام گوتار همدست می شود تا تمام دنیا را نابود کند …


– – – – – – – – – [ فــــارس فیــلم ] – – – – – – – – –



Cross Wars 2017



=-=-=-=-=-=-=

Cross Wars (2017)

Genre: Action

Directed By: Patrick Durham

Cast: Brian Austin Green, Danny Trejo, Vinnie Jones

MPAA Rate: R

Country: USA

Storyline: Callan (Brian Austin Green) returns to the scene with his team in order to oppose the return of the evil Gunnar (Vinnie Jones); his path crosses again with Frank Nitti (Tom Sizemore) detective under the city of Los Angeles

N/A/10

IMDB: http://www.imdb.com/title/tt3592904/




[mediainfo]
Video
ID : 1
Format : AVC
Format/Info : Advanced Video Codec
Format profile : High@L4
Format settings, CABAC : Yes
Format settings, ReFrames : 4 frames
Codec ID : V_MPEG4/ISO/AVC
Duration : 1h 38mn
Bit rate : 5 174 Kbps
Width : 1 920 pixels
Height : 1 032 pixels
Display aspect ratio : 1.85:1
Frame rate mode : Constant
Frame rate : 23.976 fps
Color space : YUV
Chroma subsampling : 4:2:0
Bit depth : 8 bits
Scan type : Progressive
Bits/(Pixel*Frame) : 0.109
Stream size : 3.55 GiB (91%)
Title : Cross.Wars.2017.1080p.WEB-DL.DD5.1.H264-FGT
Language : English
Default : Yes
Forced : No
Color range : Limited
Color primaries : BT.709
Transfer characteristics : BT.709
Matrix coefficients : BT.709

Audio
ID : 2
Format : AC-3
Format/Info : Audio Coding 3
Mode extension : CM (complete main)
Format settings, Endianness : Big
Codec ID : A_AC3
Duration : 1h 38mn
Bit rate mode : Constant
Bit rate : 384 Kbps
Channel(s) : 6 channels
Channel positions : Front: L C R, Side: L R, LFE
Sampling rate : 48.0 KHz
Frame rate : 31.250 fps (1536 spf)
Compression mode : Lossy
Stream size : 270 MiB (7%)
Title : Cross.Wars.2017.1080p.WEB-DL.DD5.1.H264-FGT
Language : English
Default : Yes
Forced : No

[/mediainfo]


– – – – – – – – – [ فــــارس فیــلم ] – – – – – – – – –


Cross Wars 2017


http://s8.picofile.com/file/8299149234/down123.png دانلود رایگان فیلم Cross Wars 2017 :

کیفیت BluRay 1080p : لینک مستقیم


کیفیت BluRay 1080p : لینک کمکی


کیفیت BluRay 720p : لینک مستقیم


کیفیت BluRay 720p : لینک کمکی


کیفیت BluRay 720p - RMT نسخه x265 : لینک مستقیم


کیفیت BluRay 720p - RMT نسخه x265 : لینک کمکی


کیفیت BluRay 480p : لینک مستقیم


کیفیت BluRay 480p : لینک کمکی


=-=-=-=-=-=-=

کیفیت WEB-DL 720p - ShAaNiG : لینک مستقیم – حجم : 950 مگابایت


کیفیت WEB-DL 720p - ShAaNiG : لینک مستقیم – حجم : 950 مگابایت


کیفیت WEB-DL 720p نسخه  x265 : لینک مستقیم – حجم : 619 مگابایت


– – – – – – – – – [ فــــارس فیــلم ] – – – – – – – – –

نظرات کاربران

۰ نظر 

    لطفا قبل از ارسال دیدگاه خود، موارد زیر را به دقت مطالعه کنید :

    =-=-=-=-=-=-==-=-=

  1. دیدگاهی که به غیر از زبان فارسی یا غیر مرتبط با مطلب باشد منتشر نخواهد شد.
  2. دیدگاه ارسال شده توسط شما ، پس از تایید توسط مدیران سایت منتشر خواهد شد.